Benvenuto, Ospite
Devi registrarti prima di poter scrivere nel forum.

Nome utente
  

Password
  





Ricerca forum

(Ricerca avanzata)

Statistiche del forum
» Membri: 101
» Ultimo utente: disalvat
» Discussioni del forum: 3,176
» Messaggi del forum: 4,176

Statistiche dettagliate

Utenti online
Al momento ci sono 54 utenti online.
» 0 utente(i) | 52 visitatore(i)
Facebook, Google

Ultime discussioni
Piazza Fontana The Italia...
Forum: 1080p-h264
Ultimo messaggio di: fitas
Oggi, 01:11:34
» Risposte: 0
» Visite: 23
La Valchiria (Die Walküre...
Forum: 1 - Lirica
Ultimo messaggio di: Jocelyn
Ieri, 23:52:02
» Risposte: 0
» Visite: 21
Calibro 35 - 70s Italian ...
Forum: Colonne Sonore
Ultimo messaggio di: un_ottico1965
Ieri, 23:05:57
» Risposte: 1
» Visite: 41
Phase IV (1974) UHD 4K Un...
Forum: 2160p-4K
Ultimo messaggio di: Jocelyn
Ieri, 00:42:09
» Risposte: 0
» Visite: 33
John Carpenter - Antholog...
Forum: Colonne Sonore
Ultimo messaggio di: fitas
12-06-2024, 21:55:56
» Risposte: 0
» Visite: 36
Presentazione
Forum: Mi Presento
Ultimo messaggio di: fitas
12-06-2024, 20:04:17
» Risposte: 0
» Visite: 77
La principessa del sogno ...
Forum: 1080p-h264
Ultimo messaggio di: oreste73
12-06-2024, 14:27:36
» Risposte: 0
» Visite: 30
Gli uomini, che mascalzon...
Forum: 1080p-h264
Ultimo messaggio di: jack81
11-06-2024, 16:23:18
» Risposte: 3
» Visite: 359
Fuori dal tunnel (1988) I...
Forum: 720p
Ultimo messaggio di: Kitano
08-06-2024, 20:44:49
» Risposte: 0
» Visite: 77
Controsesso (1964) 1080p ...
Forum: 1080p-h264
Ultimo messaggio di: Oronzo
08-06-2024, 05:29:17
» Risposte: 4
» Visite: 1,255

 
  Piazza Fontana The Italian Conspiracy 2012 MULTi 1080p.WEB.AAC.2.0.H264
Inviato da: fitas - Oggi, 01:11:34 - Forum: 1080p-h264 - Nessuna risposta

Piazza Fontana The Italian Conspiracy  2012.MULTi 1080p.WEB.AAC.2.0.H264

[Immagine: piazza-fontana63e176567d482-large.jpg]
Format : Matroska at 1 887 kb/
Length : 1,60 Gio for 2 h 1 min 23s 755 ms

Video #0 : AVC at 1 789 kb/s
Aspect : 1920 x 1080 (1.778) at 25.000 fps

Audio #0 : AAC at 48,0 kb/s
Infos : 1 canal, 48,0 kHz
Language : fr

Audio #1 : AAC at 48,0 kb/s
Infos : 1 canal, 48,0 kHz
Language : it

Text #0 : UTF-8
Language : fr





DOWNLOAD :

Register or login to see this content

Stampa questo articolo

  La Valchiria (Die Walküre) di Richard Wagner [BluRay 4K UHD]
Inviato da: Jocelyn - Ieri, 23:52:02 - Forum: 1 - Lirica - Nessuna risposta

LA VALCHIRIA
(Die Walküre)
dalla Saga dei Nibelunghi, l'Oro del Reno di Richard Wagner
*
(2017)
Full Blu-Ray 4K UHD
*
*
*
[Immagine: 2wfmlug.jpg]
*
*
*
*
*
Interpreti:
*
Attori: Peter Seiffert, Georg Zeppenfeld, Vitalij Kovaljov, Anja Harteros, 
direttore Christian Thielemann
Orchestra Staatskapelle Dresden
regia Vera Nemirova
regia video Tiziano Mancini
*
*
*

Note:
*
*
*
Svoltosi la primavera del 2017 al Festival di Pasqua di Salisburgo. Trattasi dello spettacolo che commemora il 50° anniversario del prestigioso festival creato da Herbert von Karajan appunto nel 1967, quando il direttore salisburghese rappresentò la prima giornata dell’Anello del Nibelungo wagneriano.
Considerata da tutto il Mondo la messa in scena più elaborata e straordinaria, e difficilmente replicabile, della Magnifica Saga.
*
*
*
Versione ISO integrale di 57,3 GB - edizione fuori commercio
*
*
*
Register or login to see this content

Stampa questo articolo

  Phase IV (1974) UHD 4K Untouched x265 2160p
Inviato da: Jocelyn - Ieri, 00:42:09 - Forum: 2160p-4K - Nessuna risposta

Phase IV



[Immagine: 71-Tyk91k3-NL-AC-UF894-1000-QL80.jpg]
*
*
*
*
*
Tra i risultati più alti della fantascienza degli anni Settanta, con un fertile intreccio di suggestioni distopiche e apocalittiche, Fase IV: distruzione Terra mette in scena la genesi di un nuovo equilibrio planetario, di una nuova forma di convivenza tra uomo e natura, ipotizzando una possibile forma di socialismo globale. Intenso, lucidissimo, il primo e purtroppo unico film diretto da Saul Bass riesce a essere rigoroso come un testo scientifico quanto ipnotico e lisergico.
*
*
*
*
Welcome our new insect overlords
*
*
*
*
*
Misteriose energie e campi magnetici provenienti dallo spazio hanno causato delle mutazioni nelle formiche di una colonia in Arizona. Le nuove formiche sembrano estremamente intelligenti e si adattano rapidamente. Sono aggressive e dominanti. Due studiosi sono inviati dall’Istituto nazionale di ricerca a studiare questo preoccupante fenomeno. L’equipe è composta da James R. Lesko e Ernest D. Hubbs, arroccati in un laboratorio tra computer e provette, costretti ben presto a confrontarsi con l’incredibile balzo evolutivo delle formiche…


DATI
Codice:
Fase.IV.Distruzione.Terra.-.Phase.IV.1974.Theatrical.Cut.2160p.ITA.ENG.Original.Audio.UHD.Blu-ray.Remux.HDR.HEVC.mkv
Format                      : Matroska
Format version              : Version 4
File size                   : 54.1 GiB
Duration                    : 1 h 20 min
Overall bit rate            : 96.5 Mb/s
Encoded date                : UTC 2024-03-15 18:21:16
Writing application         : mkvmerge v57.0.0 ('Till The End') 64-bit
Writing library             : libebml v1.4.2 + libmatroska v1.6.4

Video
ID                          : 1
Format                      : HEVC
Format/Info                 : High Efficiency Video Coding
Format profile              : Main 10@L5.1@High
HDR format                  : SMPTE ST 2086, HDR10 compatible
Codec ID                    : V_MPEGH/ISO/HEVC
Duration                    : 1 h 20 min
Bit rate                    : 96.1 Mb/s
Width                       : 3 840 pixels
Height                      : 2 160 pixels
Display aspect ratio        : 16:9
Frame rate mode             : Constant
Frame rate                  : 25.000 FPS
Original frame rate         : 23.976 (24000/1001) FPS
Color space                 : YUV
Chroma subsampling          : 4:2:0 (Type 2)
Bit depth                   : 10 bits
Bits/(Pixel*Frame)          : 0.463
Stream size                 : 53.9 GiB (100%)
Language                    : English
Default                     : Yes
Forced                      : No
Color range                 : Limited
Color primaries             : BT.2020
Transfer characteristics    : PQ
Matrix coefficients         : BT.2020 non-constant
Mastering display color pri : BT.2020
Mastering display luminance : min: 0.0001 cd/m2, max: 4000 cd/m2
Maximum Content Light Level : 1000 cd/m2
Maximum Frame-Average Light : 400 cd/m2

Audio #1
ID                          : 2
Format                      : AC-3
Format/Info                 : Audio Coding 3
Commercial name             : Dolby Digital
Codec ID                    : A_AC3
Duration                    : 1 h 19 min
Bit rate mode               : Constant
Bit rate                    : 192 kb/s
Channel(s)                  : 2 channels
Channel layout              : L R
Sampling rate               : 48.0 kHz
Frame rate                  : 31.250 FPS (1536 SPF)
Compression mode            : Lossy
Delay relative to video     : 500 ms
Stream size                 : 110 MiB (0%)
Language                    : Italian
Service kind                : Complete Main
Default                     : Yes
Forced                      : No

Audio #2
ID                          : 3
Format                      : AC-3
Format/Info                 : Audio Coding 3
Commercial name             : Dolby Digital
Codec ID                    : A_AC3
Duration                    : 1 h 19 min
Bit rate mode               : Constant
Bit rate                    : 192 kb/s
Channel(s)                  : 2 channels
Channel layout              : L R
Sampling rate               : 48.0 kHz
Frame rate                  : 31.250 FPS (1536 SPF)
Compression mode            : Lossy
Delay relative to video     : 500 ms
Stream size                 : 110 MiB (0%)
Language                    : English
Service kind                : Complete Main
Default                     : No
Forced                      : No

Text #1
ID                          : 4
Format                      : UTF-8
Codec ID                    : S_TEXT/UTF8
Codec ID/Info               : UTF-8 Plain Text
Duration                    : 1 h 18 min
Bit rate                    : 0 b/s
Count of elements           : 11
Stream size                 : 211 Bytes (0%)
Language                    : Italian
Default                     : Yes
Forced                      : Yes

Text #2
ID                          : 5
Format                      : UTF-8
Codec ID                    : S_TEXT/UTF8
Codec ID/Info               : UTF-8 Plain Text
Duration                    : 1 h 18 min
Bit rate                    : 39 b/s
Count of elements           : 684
Stream size                 : 22.9 KiB (0%)
Language                    : Italian
Default                     : No
Forced                      : No

Text #3
ID                          : 6
Format                      : UTF-8
Codec ID                    : S_TEXT/UTF8
Codec ID/Info               : UTF-8 Plain Text
Duration                    : 1 h 17 min
Bit rate                    : 37 b/s
Count of elements           : 670
Stream size                 : 21.6 KiB (0%)
Language                    : English
Default                     : No
Forced                      : No

Menu
00:00:00.000                : it:Capitolo 1
00:00:10.927                : it:Capitolo 2
00:10:15.156                : it:Capitolo 3
00:21:07.307                : it:Capitolo 4
00:32:01.753                : it:Capitolo 5
00:41:26.025                : it:Capitolo 6
00:51:42.724                : it:Capitolo 7
01:04:54.932                : it:Capitolo 8
01:16:31.628                : it:Capitolo 9
01:23:37.971                : it:Capitolo 10


*
*
*
Il capolavoro Di Saul Bass, qui nella versione RESTAURATA targata Vinegard Syndrome
*
*
*
Register or login to see this content

Stampa questo articolo

Music John Carpenter - Anthology (Movie Themes 1974-1998) (2017)
Inviato da: fitas - 12-06-2024, 21:55:56 - Forum: Colonne Sonore - Nessuna risposta

John Carpenter - Anthology (Movie Themes 1974-1998) (2017)
[Immagine: 058c52462c6d8de9e86b5f446e64430e.jpg]




Score
Date: 2023
Country: USA
Audio codec: MP3+FLAC
Quality: 320kbs+lossless
Playtime: 37:31
1. Chariots of Pumpkins (Halloween III) (3:30)
2. 69th St. Bridge (Escape From New York) (2:48)
3. The Alley (War) (Big Trouble in Little China) (2:38)
4. Wake Up (They Live) (3:23)
5. Julie’s Dead (Assault on Precinct 13) (1:50)
6. The Shape Enters Laurie’s Room (Halloween II) (1:50)
7. Season of the Witch (Halloween III) (2:03)
8. Love at a Distance (Prince of Darkness) (3:37)
9. The Shape Stalks Again (Halloween II) (3:11)
10. Burn It (The Thing) (2:24)
11. Fuchs (The Thing) (2:12)
12. To Macs Shack (The Thing) (2:58)
13. Walk to the Lighthouse (The Fog) (2:39)
14. Laurie’s Theme (Halloween) (2:34)

DOWNLOAD :

Register or login to see this content

Stampa questo articolo

Music Calibro 35 - 70s Italian cop Poliziotteschi thrIller
Inviato da: fitas - 12-06-2024, 21:49:42 - Forum: Colonne Sonore - Risposte (1)

Calibro 35 - 70s Italian cop Poliziotteschi thrIller

[Immagine: 7e8915f3127d.jpg]



Date: 2008
Country: Italy
Audio codec: MP3
Quality: 320 kbps
Playtime: 49:41
Thanks to diogene
1. Italia a mano armata (3:13)
2. Summertime killer (4:05)
3. Notte in bovisa (2:14)
4. Indagine su un cittadino al di sopra di ogni sospetto (3:45)
5. Milano calibro 9 (bouchet Funk) (2:40)
6. Trafelato (4:34)
7. Una stanza vuota (2:52)
8. La mala ordina (3:15)
9. La polizia s’incazza (2:21)
10. Preludio (2:57)
11. Gangster story (4:25)
12. Spiralys (6:14)
13. Shake Balera (2:09)
14. L’appuntamento (5:03)

DOWNLOAD :

Register or login to see this content

Stampa questo articolo

  Presentazione
Inviato da: fitas - 12-06-2024, 20:04:17 - Forum: Mi Presento - Nessuna risposta

Buongiorno a tutti,

sono un grande appassionato di film polizieschi italiani degli anni Settanta
  e spero di essere accettato nel forum e grazie,Grazie per la vostra generosità
Heart Heart Heart

Stampa questo articolo

  La principessa del sogno (1942) 1080p-h264 688,8mb
Inviato da: oreste73 - 12-06-2024, 14:27:36 - Forum: 1080p-h264 - Nessuna risposta

[Immagine: HGDNWV7.jpeg]
TRAMA:
Elisabetta, ospite di un orfanotrofio, si costruisce un mondo di sogno in cui immagina di incontrare il principe azzurro e di diventarne la sposa felice.
In effetti conosce un vero principe, se ne innamora riamata e, malgrado le opposizioni esterne, riesce a sposarlo.

Genere: commedia

Audio: Italiano

Regia: Roberto Savarese, Maria Teresa Ricci

Interpreti: Irasema Dilian, Antonio Centa

Download:

Register or login to see this content

Stampa questo articolo

  Fuori dal tunnel (1988) ITA/ENG 720p-x264 3.7GB
Inviato da: Kitano - 08-06-2024, 20:44:49 - Forum: 720p - Nessuna risposta

[Immagine: copertina.jpg]


Genere: Drammatico
Anno: 1988
Regia: Glenn Gordon Caron
Attori: Henry Judd Baker, Kathy Baker, Brian Bemben, Luca Bercovici, Claudia Christian, Tate Donovan, Morgan Freeman, Pamela Dunlap, Anne Kerry Ford, Sandra Foster, Michael Keaton, M. Emmet Walsh
Paese: USA
Durata: 125 min
Distribuzione: WARNER BROS - WARNER HOME VIDEO
Sceneggiatura: Tod Carroll
Fotografia: Jan Kiesser
Montaggio: Richard Chew
Musiche: Gabriel Yared
Produzione: TONY GANZ DEBORAH BLUM

TRAMA:
La vita di Daryl Pointer è arrivata ad una svolta: membro di una società immobiliare egli ha "preso in prestito" 92.000 dollari, affidatigli da un cliente, per fare investimenti che non gli vanno affatto bene e, fosse poco, una mattina trova in coma la donna che sta nel suo letto, una tossicodipendente che ha fornito cocaina a lui pure. Dovendo restare a disposizione della polizia, Daryl ha bisogno di un posto tranquillo e discreto: lo trova in una clinica specializzata, dove i tossicodipendenti e gli alcoolisti per circa un mese fanno analisi mediche e terapia di gruppo, affidati soprattutto al capo infermiere Craig, un ex alcoolista. Sulla prime la convivenza non è facile; poi poco a poco il corpo di Daryl si purifica delle sostanze nocive e la sua stessa personalità subisce notevoli cambiamenti e finisce con il partecipare alla vita comunitaria, alle assemblee in cui il club degli ex-alcoolisti festeggia chi, al termine della cura, è guarito. Pertanto Daryl viene affidato ad uno "sponsor", Richard Dirks, un ex-alcoolista che lo consiglia e, al caso, riprende in maniera assai severa. E' nella clinica che Daryl ha incontrato Charlie Standers, una donna che ha molto sofferto nella vita e che, finita la terapia, torna nella casa dove convive con Lenny, un pregiudicato tossicodipendente. L'amicizia per Charlie si trasforma in amore. Daryl pensa che insieme possono iniziare una nuova esistenza: lei sembra convinta, lui confessa ai propri soci i suoi impicci finanziari ma, sia pure comprendendone le ragioni, essi lo licenziano e con ciò Daryl si mette a cercar lavoro. Ma la donna rifiuta di seguirlo: Lenny è anche un individuo fragile e essa non si sente di abbandonarlo. Ad un ennesimo appello telefonico, Charlie decide di mettersi con Daryl ma, in un incidente d'auto, perde la vita. L'anziano Richards avverte Darly che ora dovrà trovare nella solitudine e unicamente nella sua volontà la forza per controllare da sé la propria vita. E, all'assemblea degli ex-alcoolisti, con una umiltà ed una senso di responsabilità che gli erano assolutamente ignoti, Darly Pointer testimonia del suo impegno sincero.


SCREENSHOT:

[Immagine: vlcsnap-2024-06-08-20h42m29s243.png]

[Immagine: vlcsnap-2024-06-08-20h42m39s286.png]

[Immagine: vlcsnap-2024-06-08-20h42m48s159.png]



INFO TECNICHE:
Codice:
Info sul file

Nome                        Fuori.dal.tunnel-Clean.and.Sober.1988.WEB-DLRip.720p..x264.ITA-ENG.
                            mkv
Data                        Fri, 07 Jun 2024 09:11:45 +0200
Dimensione                  4,021,329,298 bytes (3835.038469 MiB)
Nota                        L'analisi non è completa

Magic

Tipo file                   Matroska data
Tipo file                   EBML file, creator matroska

Info generiche

Durata                      02:04:09 (7448.512 s)
Contenitore                 matroska
Production date             Tue, 28 Mar 2023 13:06:16 +0200
Totale tracce               4
Traccia n. 1                video (V_MPEG4/ISO/AVC) [by HD4ME] {eng}
Traccia n. 2                audio (A_AC3) [AC3 Stereo] {ita}
Traccia n. 3                audio (A_AC3) [AC3 Stereo] {eng}
Traccia n. 4                subtitle (S_TEXT/UTF8) [Regular] {eng}
Muxing library              libebml v1.4.4 + libmatroska v1.7.1
Writing application         mkvmerge v75.0.0 ('Goliath') 64-bit

Dati rilevanti

Risoluzione                 1280 x 716
Larghezza                   multipla di 32
Altezza                     multipla di 4

Traccia video

Codec ID                    V_MPEG4/ISO/AVC
Risoluzione                 1280 x 716
Frame aspect ratio          320:179 = 1.787709 (~16:9)
Pixel aspect ratio          1:1 = 1
Display aspect ratio        320:179 = 1.787709 (~16:9)
Framerate                   23.976 fps

Traccia audio nr. 1

Codec ID                    A_AC3
Freq. campionamento         44100 Hz
Canali                      2
Tipo di bitstream (bs)      AC3
Bitrate (bs)                224 kbps CBR
Freq. campionamento (bs)    44100 Hz
Modo (bs)                   stereo

Traccia audio nr. 2

Codec ID                    A_AC3
Freq. campionamento         48000 Hz
Canali                      2
Tipo di bitstream (bs)      AC3
Bitrate (bs)                192 kbps CBR
Freq. campionamento (bs)    48000 Hz
Modo (bs)                   stereo

Bitstream video

Tipo di bitstream           MPEG-4 Part 10
SPS id                      0
  Profile                   High@L3.1
  Num ref frames            2
  Aspect ratio              Custom pixel shape (1:1 = 1)
  Chroma format             YUV 4:2:0
  Custom intra4X4 luma     
                              16  16  16  16
                              16  16  16  16
                              16  16  16  16
                              16  16  16  16
PPS id                      0 (SPS: 0)
  Tipo di codifica entrop…  CAVLC
  Weighted prediction       No
  Weighted bipred idc       No
  8x8dct                    Sì

Edition entry

UID                         17391535328668309950
Nascosto                    No
Selezionato di default      No
Playlist                    No
Capitoli                   
00:00:00,000-00:02:16,066   Credits: watching headlights {eng}
00:02:16,066-00:05:48,932   Messy morning after {eng}
00:05:48,932-00:07:38,965   No longer manageable {eng}
00:07:38,965-00:09:59,298   The brush-off {eng}
00:09:59,298-00:14:02,098   A safe place {eng}
00:14:02,098-00:18:05,964   Explosions {eng}
00:18:05,964-00:23:57,897   Craig and Donald {eng}
00:23:57,897-00:28:43,963   Phone tag {eng}
00:28:43,963-00:30:29,796   Outta here {eng}
00:30:29,796-00:32:55,529   Office rampage {eng}
00:32:55,529-00:37:44,595   Money from Mom {eng}
00:37:44,595-00:43:11,928   AA Meeting; sponsor search {eng}
00:43:11,928-00:45:56,261   Bad news {eng}
00:45:56,261-00:48:03,127   "You gotta know you got a problem" {eng}
00:48:03,127-00:50:49,093   Family group {eng}
00:50:49,093-00:52:52,959   Murderer's leave {eng}
00:52:52,959-00:54:49,525   The right worng number {eng}
00:54:49,525-00:58:22,191   Addicts lunch {eng}
00:58:22,191-01:02:28,424   Goodbye, Iris {eng}
01:02:28,424-01:08:15,490   The party (My Boyfriend's Back, If You Wanna Be Happy) {eng}
01:08:15,490-01:12:02,290   Slow dancing (Since I Fell for You) {eng}
01:12:02,290-01:17:41,156   Homecoming {eng}
01:17:41,156-01:24:14,522   Dinner at Charlie's {eng}
01:24:14,522-01:27:49,688   At the movies {eng}
01:27:49,688-01:30:31,421   Dinner at Daryl's {eng}
01:30:31,421-01:36:32,321   The script won't work {eng}
01:36:32,321-01:42:59,554   Owning up {eng}
01:42:59,554-01:45:49,520   Charlie consoles Daryl {eng}
01:45:49,520-01:47:48,686   Happy sewer rats {eng}
01:47:48,686-01:51:57,486   Three needy people {eng}
01:51:57,486-01:54:30,619   An accident {eng}
01:54:30,619-01:56:21,552   Nobody else {eng}
01:56:21,552-01:59:57,585   "I got this chip" {eng}
01:59:57,585-02:04:08,512   End Credits {eng}

Rapporto creato da AVInaptic (01-11-2020) in data 8-06-2024 20:41:33


LINK:
Register or login to see this content

Stampa questo articolo

  Oltre il Giardino - Being There (1979, Untouched, ITA/ENG h264, Criterion Collection)
Inviato da: Jocelyn - 08-06-2024, 00:50:53 - Forum: 1080p-h264 - Nessuna risposta

Oltre il Giardino
(Being There)
*
[Immagine: 91cwee-UJz-KL-AC-UF1000-1000-QL80.jpg]
Scheda
Codice:
Titolo originale: Being There
Nazione: USA
Anno: 1979
Genere: Comedy, Drama
Durata: 130 min
Regia: Hal Ashby
Produzione: Lorimar Productions
Cast:

Peter Sellers - Chance the gardener (Chauncey Gardiner)
Shirley MacLaine - Eve Rand
Melvyn Douglas - Ben Rand
Richard Dysart - Dr. Robert Allenby
Jack Warden - the President
Richard Basehart - Soviet Ambassador Vladimir Skrapinov
Than Wyenn - Ambassador Gaufridi
David Clennon - Thomas Franklin
Fran Brill - Sally Hayes
Ruth Attaway - Louise
Denise DuBarry - Johanna
Sam Weisman - Colson
Alice Hirson - the First Lady
Arthur Rosenberg - Morton Hull
Jerome Hellman - Gary Burns
James Noble - Kaufman
John Harkins - Courtney
Elya Baskin - Karpatov
Richard McKenzie - Ron Steigler
Oteil Burbridge - Lolo (boy on corner)
Hoyt Clark Harris Jr. - Secret Service agent Riff
Trama
Un giardiniere semplice e riservato diventa un consigliere di fiducia per un potente uomo d'affari e un'insider della politica di Washington.
Il film ha ottenuto 2 candidature e vinto un premio ai Premi Oscar, 5 candidature e vinto 3 Golden Globes
, ed è universalmente riconosciuto come il capolavoro di Peter Sellers assieme a Hollywood Party.
Edizione Untouched Criterion Collection
*
Dati:
Codice:
Oltre il giardino (Being.There.-.Ashby,1979).Criterion.Collection.BDRemux.Ita.Eng.1080p.mkv
Format                      : Matroska
Format version              : Version 4
File size                   : 25.8 GiB
Duration                    : 2 h 4 min
Overall bit rate mode       : Variable
Overall bit rate            : 29.6 Mb/s
Movie name                  : Oltre il giardino (Being.There.-.Ashby,1979).Criterion.Collection.BDRemux.Ita.Eng.1080p
Encoded date                : UTC 2024-04-11 21:51:38
Writing application         : mkvmerge v57.0.0 ('Till The End') 64-bit
Writing library             : libebml v1.4.2 + libmatroska v1.6.4
Cover                       : Yes
Attachments                 : Cover.png / Being.There.1979.CC.BD.png / Being.There.1979.CC.BD.Back.png / Being.There.1979.WB.BD.png / Being.There.1979.Poster.jpeg / Being.There.1979.Afisha.jpg / Being.There.1979.Banner.jpg / Being.There.1979.Print.jpg / cover.jpg

Video
ID                          : 1
Format                      : AVC
Format/Info                 : Advanced Video Codec
Format profile              : High@L4.1
Format settings             : CABAC / 4 Ref Frames
Format settings, CABAC      : Yes
Format settings, Reference  : 4 frames
Codec ID                    : V_MPEG4/ISO/AVC
Duration                    : 2 h 4 min
Bit rate mode               : Variable
Bit rate                    : 29.2 Mb/s
Maximum bit rate            : 37.0 Mb/s
Width                       : 1 920 pixels
Height                      : 1 080 pixels
Display aspect ratio        : 16:9
Frame rate mode             : Constant
Frame rate                  : 25.000 FPS
Original frame rate         : 23.976 (24000/1001) FPS
Color space                 : YUV
Chroma subsampling          : 4:2:0
Bit depth                   : 8 bits
Scan type                   : Progressive
Bits/(Pixel*Frame)          : 0.563
Stream size                 : 25.5 GiB (99%)
Title                       : Oltre il giardino (Ashby, 1979)
Language                    : English
Default                     : Yes
Forced                      : No

Audio #1
ID                          : 2
Format                      : AC-3
Format/Info                 : Audio Coding 3
Commercial name             : Dolby Digital
Codec ID                    : A_AC3
Duration                    : 2 h 4 min
Bit rate mode               : Constant
Bit rate                    : 192 kb/s
Channel(s)                  : 1 channel
Channel layout              : C
Sampling rate               : 48.0 kHz
Frame rate                  : 31.250 FPS (1536 SPF)
Compression mode            : Lossy
Delay relative to video     : 25 s 880 ms
Stream size                 : 171 MiB (1%)
Title                       : Italian
Language                    : Italian
Service kind                : Complete Main
Default                     : Yes
Forced                      : No

Audio #2
ID                          : 3
Format                      : AC-3
Format/Info                 : Audio Coding 3
Commercial name             : Dolby Digital
Codec ID                    : A_AC3
Duration                    : 2 h 4 min
Bit rate mode               : Constant
Bit rate                    : 192 kb/s
Channel(s)                  : 2 channels
Channel layout              : L R
Sampling rate               : 48.0 kHz
Frame rate                  : 31.250 FPS (1536 SPF)
Compression mode            : Lossy
Delay relative to video     : 25 s 880 ms
Stream size                 : 171 MiB (1%)
Title                       : English
Language                    : English
Service kind                : Complete Main
Default                     : No
Forced                      : No

Text #1
ID                          : 4
Format                      : UTF-8
Codec ID                    : S_TEXT/UTF8
Codec ID/Info               : UTF-8 Plain Text
Duration                    : 2 h 3 min
Bit rate                    : 52 b/s
Count of elements           : 1390
Stream size                 : 47.5 KiB (0%)
Title                       : Italian
Language                    : Italian
Default                     : No
Forced                      : No

Text #2
ID                          : 5
Format                      : UTF-8
Codec ID                    : S_TEXT/UTF8
Codec ID/Info               : UTF-8 Plain Text
Duration                    : 2 h 4 min
Bit rate                    : 59 b/s
Count of elements           : 1596
Stream size                 : 53.7 KiB (0%)
Title                       : English
Language                    : English
Default                     : No
Forced                      : No

Menu
00:00:00.000                : Wake-up call
00:10:53.239                : The gardener
00:18:35.279                : The world outside
00:32:52.119                : Going up
00:41:29.039                : The Room Upstairs
00:48:27.279                : Mr. President
01:03:09.519                : "A garden of the earth"
01:13:27.959                : "Relatively unknown"
01:24:42.959                : "Would you be mine?"
01:32:37.919                : The Russian ambassador
01:43:22.159                : "I like to watch"
01:56:56.640                : "Life is a state of mind"
Link
Register or login to see this content

Stampa questo articolo

  La grande guerra (1959) 720p-h265 2.37gb ITA
Inviato da: jack81 - 07-06-2024, 23:14:25 - Forum: 720p - Nessuna risposta

[Immagine: u2b4nMrX_o.jpg]


TRAMA:
1916: Chiamata alle armi. Il romano Oreste Jacovacci (Alberto Sordi) ed il milanese Giovanni Busacca (Vittorio Gassman), dopo aver tentato invano diverse strategie per farsi riformare, si ritrovano arruolati al fronte.
Dopo un iniziale scontro fra i due, dovuto ad un inganno perpetrato da Jacovacci ai danni del Busacca, scatterà fra gli stessi un rapporto d'amicizia, alimentato in particolare dalla comune codardia.
Al fronte proveranno le sventure legate alla condizione di soldati, quali la sofferenza dovuta al freddo e l'adeguamento al cibo scadente, ma riusciranno ad ogni modo a scansare ogni situazione particolarmente pericolosa.
Nonostante la loro "prudenza", finiranno comunque nelle mani del nemico, e in quel momento dovranno decidere se continuare a salvare la pelle o se dimostrarsi valorosi per il bene della Patria.

Leone d'oro al Festival del Cinema di Venezia ex aequo con Il generale Della Rovere di Roberto Rossellini; nomination all'Oscar per il miglior film straniero.

[Immagine: 7kzrJG15_o.png]

[Immagine: sO3wPVos_o.png]

[Immagine: GVs9w17D_o.png]

[Immagine: kNgKFtnt_o.png]

[Immagine: 7fNPyurA_o.png]

Generale
ID univoco                              : 279479436058114693921485724224226549535 (0xD241C80EB61E0AF3BECF8D4DE3B75F1F)
Nome completo                          : D:\La grande guerra (Mario Monicelli, 1959) WEB-DL 720p x265.mkv
Formato                                : Matroska
Versione formato                        : Version 4
Dimensione file                        : 2,37 GiB
Durata                                  : 2o 11min
Bitrate totale                          : 2.567 kb/s
Data codifica                          : UTC 2022-02-01 20:09:05
Creato con                              : mkvmerge v61.0.0 ('So') 64-bit
Compressore                            : libebml v1.4.2 + libmatroska v1.6.4

Video
ID                                      : 1
Formato                                : HEVC
Formato/Informazioni                    : High Efficiency Video Coding
Profilo formato                        : Main 10@L5.1@High
ID codec                                : V_MPEGH/ISO/HEVC
Durata                                  : 2o 11min
Bitrate                                : 2.494 kb/s
Larghezza                              : 1.280 pixel
Altezza                                : 552 pixel
Rapporto aspetto visualizzazione        : 2,35:1
Modalità frame rate                    : Costante
Frequenza fotogrammi                    : 25,000 fps
Spazio colore                          : YUV
Croma subsampling                      : 4:2:0
Profondità bit                          : 10 bit
Bit/(pixel*frame)                      : 0.141
Dimensione traccia                      : 2,30 GiB (97%)
Default                                : Si
Forced                                  : No

Audio
ID                                      : 2
Formato                                : AAC LC
Formato/Informazioni                    : Advanced Audio Codec Low Complexity
ID codec                                : A_AAC-2
Durata                                  : 2o 11min
Bitrate                                : 70,5 kb/s
Canali                                  : 2 canali
Layout canale                          : L R
Frequenza campionamento                : 48,0 KHz
Frequenza fotogrammi                    : 46,875 fps (1024 SPF)
Modo compressione                      : Con perdita
Ritardo video                          : 20ms
Dimensione traccia                      : 66,5 MiB (3%)
Lingua                                  : Italiano
Default                                : No
Forced                                  : No

audio = italiano (stereo)
durata = 2h11m59s
Register or login to see this content

Stampa questo articolo